<?xml version="1.0" standalone="no"?>
<!DOCTYPE svg PUBLIC "-//W3C//DTD SVG 1.1//EN" "http://www.w3.org/Graphics/SVG/1.1/DTD/svg11.dtd">
<svg xmlns="http://www.w3.org/2000/svg">
<defs >
<font id="Khand" horiz-adv-x="416" ><font-face
    font-family="Khand"
    units-per-em="1000"
    panose-1="2 0 0 0 0 0 0 0 0 0"
    ascent="1050"
    descent="-479"
    alphabetic="0" />
<glyph unicode=" " glyph-name="space" horiz-adv-x="189" />
<glyph unicode="!" glyph-name="exclam" horiz-adv-x="248" d="M80 -6T80 39T123 85T167 40T124 -6ZM85 672H162L153 172H94L85 672Z" />
<glyph unicode="&quot;" glyph-name="quotedbl" horiz-adv-x="348" d="M81 745H144V542H81V745ZM203 745H266V542H203V745Z" />
<glyph unicode="#" glyph-name="numbersign" horiz-adv-x="531" d="M506 432H421L390 222H467V168H382L358 0H297L321 168H178L154 0H92L116 168H37V222H124L155 432H76V486H163L187 654H249L225 486H368L392 654H453L429 486H506V432ZM329 222L360 432H217L186 222H329Z" />
<glyph unicode="$" glyph-name="dollar" horiz-adv-x="388" d="M356 194V140Q356 17 216 -2V-74H150V-5Q76 -2 33 15V83Q92 61 167 61Q285 61 285 144V186Q285 219 273 238T230 274L115 337Q28 384 28 477V536Q28 656 160 674V736H225V676Q288 673 330 660V592Q278
611 203 611Q100 611 100 533V485Q100 450 113 430T159 392L275 327Q356 283 356 194Z" />
<glyph unicode="%" glyph-name="percent" horiz-adv-x="567" d="M310 66T310 134T338 239T421 276T504 239T532 134T504 29T421 -9T338 28ZM367 44T421 44T475 133T421 223T367 134ZM35 470T35 538T63 643T146 681T229 644T257 538T229 433T146 395T63 432ZM199
448T199 538T146 628T92 538T145 448ZM391 672H446L176 0H122L391 672Z" />
<glyph unicode="&amp;" glyph-name="ampersand" horiz-adv-x="457" d="M442 377V314H400V149Q400 78 356 35T228 -9T99 35T53 149V221Q53 318 131 346Q54 374 54 472V527Q54 596 100 636T243 677Q313 677 369 659V590Q311 610 244 610T151 588T125 523V473Q125
377 214 377H331V435H400V377H442ZM331 150V314H215Q124 314 124 219V150Q124 106 150 80T228 54T305 80T331 150Z" />
<glyph unicode="&apos;" glyph-name="quotesingle" horiz-adv-x="225" d="M81 745H144V542H81V745Z" />
<glyph unicode="(" glyph-name="parenleft" horiz-adv-x="284" d="M182 680T157 559T131 326T156 91T226 -132H163Q119 -40 94 85T69 325T94 565T163 782H226Q182 680 157 559Z" />
<glyph unicode=")" glyph-name="parenright" horiz-adv-x="284" d="M165 689T190 565T215 326T190 85T121 -132H58Q102 -31 127 91T153 325T128 559T58 782H121Q165 689 190 565Z" />
<glyph unicode="*" glyph-name="asterisk" horiz-adv-x="495" d="M218 684V785H280V684Q280 651 271 628Q291 643 322 653L419 685L438 626L342 595Q311 585 285 585Q304 573 325 545L385 463L335 427L276 508Q256 534 249 558Q242 534 223 509L164 427L114 463L173
544Q194 573 214 585Q187 585 157 595L61 626L79 684L175 653Q206 643 226 628Q218 654 218 684Z" />
<glyph unicode="+" glyph-name="plus" horiz-adv-x="439" d="M398 354V295H252V146H187V295H41V354H187V503H252V354H398Z" />
<glyph unicode="," glyph-name="comma" horiz-adv-x="146" d="M83 85Q118 85 118 52Q118 8 48 -126H6L48 85H83Z" />
<glyph unicode="-" glyph-name="hyphen" horiz-adv-x="228" d="M40 354H193V295H40V354Z" />
<glyph unicode="." glyph-name="period" horiz-adv-x="151" d="M32 -6T32 39T75 85T119 40T76 -6Z" />
<glyph unicode="/" glyph-name="slash" horiz-adv-x="378" d="M299 782H361L95 -132H32L299 782Z" />
<glyph unicode="0" glyph-name="zero" horiz-adv-x="446" d="M316 522Q316 618 223 618T130 522V150Q130 54 223 54T316 150V522ZM59 523Q59 595 99 638T222 682T346 639T387 523V148Q387 76 347 33T223 -10T99 33T59 148V523Z" />
<glyph unicode="1" glyph-name="one" horiz-adv-x="278" d="M209 672V0H137V599L11 507V587L128 672H209Z" />
<glyph unicode="2" glyph-name="two" horiz-adv-x="401" d="M177 677Q354 677 354 535V477Q353 421 336 387T276 324L199 269Q149 235 132 211T115 142V66H356V0H43V145Q43 208 69 244T150 318L230 375Q261 395 272 419T283 483V531Q283 571 261 591T174 611T54
590V659Q106 677 177 677Z" />
<glyph unicode="3" glyph-name="three" horiz-adv-x="393" d="M154 677Q330 677 330 533V464Q330 367 257 338Q334 312 334 217V140Q334 71 290 33T162 -5T26 13V83Q85 60 149 60T238 81T263 143V210Q263 304 169 304H100V369H169Q219 369 239 393T259 465V529Q259
569 236 590T149 612T39 595V663Q84 677 154 677Z" />
<glyph unicode="4" glyph-name="four" horiz-adv-x="405" d="M400 189V126H332V0H263V126H10V190L223 672H332V189H400ZM264 189V613L77 189H264Z" />
<glyph unicode="5" glyph-name="five" horiz-adv-x="419" d="M62 672H350V606H132V394Q170 399 215 399Q366 399 366 249V139Q366 71 321 33T185 -5Q121 -5 57 15V85Q124 60 184 60T270 81T295 143V244Q295 290 276 311T204 333Q180 333 62 322V672Z" />
<glyph unicode="6" glyph-name="six" horiz-adv-x="433" d="M316 273Q316 356 229 356Q172 356 130 332V149Q130 53 223 53T316 149V273ZM59 519Q59 590 102 633T228 677T363 659V591Q311 611 239 611Q130 611 130 515V398Q174 420 241 420T347 383T387 276V148Q387
76 347 33T223 -10T99 33T59 148V519Z" />
<glyph unicode="7" glyph-name="seven" horiz-adv-x="329" d="M5 672H305V615L239 406Q209 309 196 244T183 98V0H111V101Q111 183 124 249T168 411L230 607H5V672Z" />
<glyph unicode="8" glyph-name="eight" horiz-adv-x="455" d="M394 527V461Q394 367 323 335Q397 301 397 208V144Q397 74 355 32T228 -10T101 31T59 144V208Q59 301 132 335Q61 367 61 461V527Q61 598 102 640T228 682T353 640T394 527ZM132 527V460Q132 364
228 364T324 460V527Q324 619 228 619T132 527ZM326 145V209Q326 305 228 305T129 209V145Q129 53 227 53T326 145Z" />
<glyph unicode="9" glyph-name="nine" horiz-adv-x="433" d="M303 523Q303 618 210 618T117 523V396Q117 308 206 308Q269 308 303 331V523ZM46 523Q46 595 86 638T210 682T334 639T374 523V148Q374 78 330 37T194 -5Q127 -5 65 14V83Q126 60 193 60Q303 60 303
152V265Q264 244 195 244T86 283T46 392V523Z" />
<glyph unicode=":" glyph-name="colon" horiz-adv-x="202" d="M32 -6T32 39T75 85T119 40T76 -6ZM32 344T32 390T75 436T119 390T76 344Z" />
<glyph unicode=";" glyph-name="semicolon" horiz-adv-x="200" d="M32 344T32 390T75 436T119 390T76 344ZM83 85Q118 85 118 52Q118 8 48 -126H6L48 85H83Z" />
<glyph unicode="&lt;" glyph-name="less" horiz-adv-x="460" d="M401 502V438L98 324L401 211V147L42 286V362L401 502Z" />
<glyph unicode="=" glyph-name="equal" horiz-adv-x="437" d="M39 264H397V205H39V264ZM39 443H397V384H39V443Z" />
<glyph unicode="&gt;" glyph-name="greater" horiz-adv-x="459" d="M56 502L415 362V286L56 147V211L359 324L56 438V502Z" />
<glyph unicode="?" glyph-name="question" horiz-adv-x="379" d="M99 -6T99 39T142 85T186 40T143 -6ZM152 682Q330 682 330 541V442Q330 292 178 288L173 172H112L108 348H163Q260 348 260 443V537Q260 577 237 596T151 615T35 598V667Q91 682 152 682Z" />
<glyph unicode="@" glyph-name="at" horiz-adv-x="857" d="M518 -113H432Q239 -113 156 -15T72 273T157 562T434 661T710 566T793 283Q793 148 753 88T634 28T524 77Q485 46 418 46Q286 46 286 160V174Q286 226 314 253T400 299L505 332V387Q505 421 490 439T430
457T310 439V495Q369 511 432 511Q565 511 565 389V162Q565 121 582 103T640 84T706 128T730 283Q730 445 664 524T433 603T202 521T136 275T202 28T433 -55H518V-113ZM349 175V159Q349 99 415 99Q441 99 463 106T505 127V275L418 248Q380 237 365 223T349 175Z"
/>
<glyph unicode="A" glyph-name="A" horiz-adv-x="438" d="M350 0L309 188H129L88 0H17L169 672H269L421 0H350ZM142 250H295L218 603L142 250Z" />
<glyph unicode="B" glyph-name="B" horiz-adv-x="468" d="M403 520V463Q403 367 329 339Q409 312 409 212V152Q409 81 369 41T248 0H69V672H242Q322 672 362 632T403 520ZM236 610H140V369H236Q332 369 332 461V518Q332 610 236 610ZM338 154V214Q338 306 242
306H140V62H242Q338 62 338 154Z" />
<glyph unicode="C" glyph-name="C" horiz-adv-x="394" d="M59 535Q59 677 239 677Q297 677 355 661V595Q296 612 237 612T154 592T130 531V140Q130 101 154 81T240 60T357 76V11Q307 -5 239 -5Q59 -5 59 137V535Z" />
<glyph unicode="D" glyph-name="D" horiz-adv-x="465" d="M336 520Q336 610 241 610H140V63H241Q336 63 336 155V520ZM69 672H245Q325 672 366 631T407 521V153Q407 82 367 41T247 0H69V672Z" />
<glyph unicode="E" glyph-name="E" horiz-adv-x="397" d="M69 672H360V609H140V370H332V307H140V63H360V0H69V672Z" />
<glyph unicode="F" glyph-name="F" horiz-adv-x="371" d="M69 672H352V609H140V357H341V293H140V0H69V672Z" />
<glyph unicode="G" glyph-name="G" horiz-adv-x="448" d="M59 529Q59 598 104 637T245 677Q309 677 366 660V592Q307 611 245 611T157 590T130 525V140Q130 59 226 59Q289 59 316 80V330H387V35Q316 -5 232 -5Q59 -5 59 137V529Z" />
<glyph unicode="H" glyph-name="H" horiz-adv-x="495" d="M354 672H426V0H354V298H140V0H69V672H140V361H354V672Z" />
<glyph unicode="I" glyph-name="I" horiz-adv-x="209" d="M69 672H140V0H69V672Z" />
<glyph unicode="J" glyph-name="J" horiz-adv-x="210" d="M70 672H141V198Q141 70 108 -44L77 -149H4L34 -44Q70 84 70 197V672Z" />
<glyph unicode="K" glyph-name="K" horiz-adv-x="433" d="M69 672H140V0H69V672ZM331 672H408L267 337L416 0H337L191 335L331 672Z" />
<glyph unicode="L" glyph-name="L" horiz-adv-x="349" d="M69 672H140V62H344V0H69V672Z" />
<glyph unicode="M" glyph-name="M" horiz-adv-x="611" d="M542 672V0H474V354Q474 457 480 553L343 179H268L129 553Q136 460 136 355V0H69V672H153L305 251L457 672H542Z" />
<glyph unicode="N" glyph-name="N" horiz-adv-x="500" d="M367 114L360 335V672H431V0H349L211 348Q203 369 132 557L138 337V0H69V672H151Q310 268 367 114Z" />
<glyph unicode="O" glyph-name="O" horiz-adv-x="457" d="M327 522Q327 617 229 617T130 522V150Q130 54 228 54T327 150V522ZM59 523Q59 594 102 638T228 682T355 638T398 523V148Q398 77 355 34T228 -10T102 33T59 148V523Z" />
<glyph unicode="P" glyph-name="P" horiz-adv-x="439" d="M323 517Q323 609 228 609H140V294H228Q323 294 323 385V517ZM69 672H232Q311 672 352 631T394 521V382Q394 312 353 272T232 231H140V0H69V672Z" />
<glyph unicode="Q" glyph-name="Q" horiz-adv-x="457" d="M228 -10Q144 -10 102 33T59 148V523Q59 594 102 638T228 682T355 638T398 523V148Q398 59 336 18L444 -100H355L270 -7Q250 -10 228 -10ZM130 522V150Q130 54 228 54T327 150V522Q327 617 229 617T130 522Z" />
<glyph unicode="R" glyph-name="R" horiz-adv-x="457" d="M239 270H140V0H69V672H232Q312 672 353 632T394 521V422Q394 314 308 282L415 0H337L239 270ZM140 332H229Q323 332 323 423V518Q323 609 229 609H140V332Z" />
<glyph unicode="S" glyph-name="S" horiz-adv-x="388" d="M28 536Q28 602 72 639T195 677T330 660V592Q278 611 203 611Q100 611 100 533V485Q100 450 113 430T159 392L275 327Q356 283 356 194V140Q356 71 309 33T174 -5T33 15V83Q92 61 167 61Q285 61 285 144V186Q285
219 273 238T230 274L115 337Q28 384 28 477V536Z" />
<glyph unicode="T" glyph-name="T" horiz-adv-x="350" d="M341 672V609H211V0H139V609H9V672H341Z" />
<glyph unicode="U" glyph-name="U" horiz-adv-x="466" d="M331 672H402V148Q402 77 360 34T233 -10T107 33T64 148V672H135V150Q135 54 233 54T331 150V672Z" />
<glyph unicode="V" glyph-name="V" horiz-adv-x="419" d="M333 672H407L260 0H160L13 672H86L157 338Q195 137 210 69Q218 109 237 207Q258 314 333 672Z" />
<glyph unicode="W" glyph-name="W" horiz-adv-x="609" d="M520 672H588L477 0H392Q326 388 319 444T305 561Q295 452 275 336L218 0H131L21 672H89L155 271L179 93Q190 183 204 272L268 672H341L405 271L430 95Q443 200 454 271L520 672Z" />
<glyph unicode="X" glyph-name="X" horiz-adv-x="392" d="M302 672H379L233 336L379 0H302L197 255L91 0H13L159 336L13 672H90L197 416L302 672Z" />
<glyph unicode="Y" glyph-name="Y" horiz-adv-x="409" d="M240 0H169V227L4 672H77L145 489Q149 478 206 310Q243 425 333 672H405L240 227V0Z" />
<glyph unicode="Z" glyph-name="Z" horiz-adv-x="382" d="M33 672H354V611L103 62H350V0H28V62L278 609H33V672Z" />
<glyph unicode="[" glyph-name="bracketleft" horiz-adv-x="296" d="M143 -77H266V-133H82V786H266V730H143V-77Z" />
<glyph unicode="\" glyph-name="backslash" horiz-adv-x="392" d="M33 786H97L366 -133H302L33 786Z" />
<glyph unicode="]" glyph-name="bracketright" horiz-adv-x="296" d="M30 786H214V-133H30V-77H153V730H30V786Z" />
<glyph unicode="^" glyph-name="asciicircum" horiz-adv-x="318" d="M310 379H242L157 626L72 379H3L111 664H204L310 379Z" />
<glyph unicode="_" glyph-name="underscore" horiz-adv-x="477" d="M2 -12H474V-69H2V-12Z" />
<glyph unicode="`" glyph-name="grave" horiz-adv-x="350" d="M122 720H189L228 613H182L122 720Z" />
<glyph unicode="a" glyph-name="a" horiz-adv-x="425" d="M101 162V132Q101 92 120 73T192 54T292 93V280L178 248Q133 235 117 216T101 162ZM191 574Q361 574 361 429V0H293V41Q242 -4 171 -4Q32 -4 32 133V165Q32 269 153 303L293 342V429Q292 470 270 489T182
508T59 488V555Q116 574 191 574Z" />
<glyph unicode="b" glyph-name="b" horiz-adv-x="447" d="M317 432Q317 505 244 505Q204 505 140 481V65H223Q317 65 317 153V432ZM69 720H139V547Q199 572 258 572T353 537T389 439V148Q389 77 349 39T240 0H69V720Z" />
<glyph unicode="c" glyph-name="c" horiz-adv-x="370" d="M59 430Q59 574 227 574Q289 574 333 560V495Q285 508 229 508T152 489T130 428V140Q130 98 151 79T231 60T335 76V9Q281 -5 227 -5Q59 -5 59 137V430Z" />
<glyph unicode="d" glyph-name="d" horiz-adv-x="447" d="M307 504H225Q130 504 130 418V145Q130 61 211 61Q271 61 307 95V504ZM307 720H378V0H309V33Q264 -3 197 -3T95 34T59 140V419Q59 490 101 529T213 569H307V720Z" />
<glyph unicode="e" glyph-name="e" horiz-adv-x="436" d="M59 145V423Q59 494 99 536T222 579T343 537T383 423V249H129V148Q129 103 157 81T244 59T366 77V11Q316 -5 247 -5Q59 -5 59 145ZM129 308H315V423Q315 517 222 517T129 423V308Z" />
<glyph unicode="f" glyph-name="f" horiz-adv-x="273" d="M90 603Q90 668 125 703T228 739Q252 739 273 736V675Q258 679 233 679Q161 679 161 604V569H267V508H161V0H90V508H33V569H90V603Z" />
<glyph unicode="g" glyph-name="g" horiz-adv-x="447" d="M426 543H392Q366 543 347 530Q378 493 378 433V353Q378 285 337 247T213 207Q156 207 156 154Q156 130 171 119T221 108H280Q417 108 417 -8V-21Q417 -149 236 -149H195Q94 -149 39 -118V-50Q105 -87
195 -87H231Q349 -87 349 -21V-11Q349 18 335 32T276 47H216Q156 47 124 69T92 133V149Q92 175 106 192T143 215Q44 243 44 353V433Q44 501 85 540T204 579T320 552Q340 612 411 612H426V543ZM307 353V433Q307 476 285 497T211 518T138 497T115 433V353Q115 310
137 289T211 268T284 289T307 353Z" />
<glyph unicode="h" glyph-name="h" horiz-adv-x="451" d="M69 720H139V546Q197 571 255 571T350 537T387 439V0H316V432Q316 505 243 505Q192 505 140 480V0H69V720Z" />
<glyph unicode="i" glyph-name="i" horiz-adv-x="209" d="M61 633T61 679T104 725T148 679T105 633ZM69 565H140V0H69V565Z" />
<glyph unicode="j" glyph-name="j" horiz-adv-x="209" d="M61 633T61 679T104 725T148 679T105 633ZM69 565H140V-9Q140 -76 106 -113T4 -151Q-10 -151 -25 -148V-84Q-9 -86 2 -86Q37 -86 53 -68T69 -9V565Z" />
<glyph unicode="k" glyph-name="k" horiz-adv-x="402" d="M69 720H139V0H69V720ZM301 569H376L251 295L386 0H307L175 295L301 569Z" />
<glyph unicode="l" glyph-name="l" horiz-adv-x="209" d="M69 720H140V0H69V720Z" />
<glyph unicode="m" glyph-name="m" horiz-adv-x="699" d="M358 530Q427 571 495 571T599 537T635 439V0H563V432Q563 505 490 505Q436 505 382 472Q387 457 387 432V0H316V432Q316 505 242 505Q195 505 140 479V0H69V569H137V543Q204 571 254 571Q322 571 358 530Z" />
<glyph unicode="n" glyph-name="n" horiz-adv-x="451" d="M137 543Q204 571 259 571T351 537T387 439V0H316V432Q316 505 242 505Q195 505 140 479V0H69V569H137V543Z" />
<glyph unicode="o" glyph-name="o" horiz-adv-x="442" d="M313 423Q313 516 221 516T129 423V146Q129 52 221 52T313 146V423ZM59 424Q59 495 99 537T221 579T343 537T383 424V145Q383 74 343 32T221 -10T99 32T59 145V424Z" />
<glyph unicode="p" glyph-name="p" horiz-adv-x="447" d="M317 432Q317 505 243 505Q195 505 140 479V65H224Q317 65 317 154V432ZM137 542Q204 571 260 571T352 537T389 439V149Q389 79 349 40T241 0H140V-149H69V569H137V542Z" />
<glyph unicode="q" glyph-name="q" horiz-adv-x="447" d="M307 504H227Q130 504 130 413V146Q130 62 211 62Q270 62 307 95V504ZM216 569H378V-149H308V27Q267 -2 201 -2Q59 -2 59 143V414Q59 486 101 527T216 569Z" />
<glyph unicode="r" glyph-name="r" horiz-adv-x="283" d="M253 572H278V504H244Q208 504 179 485Q170 479 140 458V0H69V569H137V526Q140 528 152 537T167 547T180 555T196 562T212 567Q227 572 253 572Z" />
<glyph unicode="s" glyph-name="s" horiz-adv-x="361" d="M28 435Q28 505 68 539T199 574Q255 574 310 557V491Q260 509 200 509T119 492T98 433V407Q98 375 110 358T157 326L243 284Q333 240 333 162V135Q333 -5 152 -5Q84 -5 32 11V77Q84 59 147 59T236 78T262
136V156Q262 184 249 199T198 233L112 274Q28 314 28 401V435Z" />
<glyph unicode="t" glyph-name="t" horiz-adv-x="291" d="M139 672V569H266V506H139V126Q139 91 156 76T208 60T276 71V6Q236 -4 201 -4Q67 -4 67 123V506H5V569H70L90 672H139Z" />
<glyph unicode="u" glyph-name="u" horiz-adv-x="452" d="M216 61Q266 61 312 92V569H383V0H315V27Q257 -2 197 -2T100 34T64 140V569H135V146Q135 61 216 61Z" />
<glyph unicode="v" glyph-name="v" horiz-adv-x="386" d="M297 569H369L243 0H143L17 569H90L145 308L194 50Q224 216 297 569Z" />
<glyph unicode="w" glyph-name="w" horiz-adv-x="598" d="M509 569H581L478 0H380Q299 451 299 474Q294 415 270 285L218 0H121L17 569H90L171 73L260 569H339L428 72L509 569Z" />
<glyph unicode="x" glyph-name="x" horiz-adv-x="362" d="M279 569H353L217 285L353 0H279L181 215L84 0H9L144 285L9 569H84L181 356L279 569Z" />
<glyph unicode="y" glyph-name="y" horiz-adv-x="388" d="M299 569H370L214 -149H146L177 0H142L18 569H90L150 286L194 50Q214 168 238 286L299 569Z" />
<glyph unicode="z" glyph-name="z" horiz-adv-x="321" d="M25 569H300V514L92 62H300V0H20V55L225 507H25V569Z" />
<glyph unicode="{" glyph-name="braceleft" horiz-adv-x="351" d="M200 656V450Q200 392 182 362T114 325Q163 319 181 290T200 203V-6Q200 -72 282 -72H297V-133H279Q211 -133 174 -99T137 -4V224Q137 257 118 276T61 295H59V355H61Q98 355 117 374T137 426V654Q137
714 174 748T279 782H297V722H282Q200 722 200 656Z" />
<glyph unicode="|" glyph-name="bar" horiz-adv-x="207" d="M76 804H131V-151H76V804Z" />
<glyph unicode="}" glyph-name="braceright" horiz-adv-x="351" d="M289 355H291V295H289Q252 295 232 276T212 224V-4Q212 -65 176 -99T71 -133H53V-72H68Q150 -72 150 -6V203Q150 260 168 289T235 325Q187 331 169 361T150 450V656Q150 722 68 722H53V782H71Q139
782 175 748T212 654V426Q212 393 232 374T289 355Z" />
<glyph unicode="~" glyph-name="asciitilde" horiz-adv-x="428" d="M403 365Q403 305 356 284T255 288L167 327Q129 346 103 335T84 283H26Q23 297 23 312Q23 353 46 377Q88 421 172 389L260 351Q300 331 325 342T343 395H401Q403 381 403 365Z" />
<glyph unicode="&#xa0;" glyph-name="uni00A0" horiz-adv-x="189" />
<glyph unicode="&#xa1;" glyph-name="exclamdown" horiz-adv-x="248" d="M162 -103H85L94 397H153L162 -103ZM80 484T80 529T123 575T167 530T124 484Z" />
<glyph unicode="&#xa2;" glyph-name="cent" horiz-adv-x="400" d="M265 -77H200V-3Q67 10 67 137V430Q67 559 200 572V653H265V573Q308 570 341 560V495Q293 508 237 508T160 489T138 428V140Q138 98 159 79T239 60T343 76V9Q297 -2 265 -4V-77Z" />
<glyph unicode="&#xa3;" glyph-name="sterling" horiz-adv-x="459" d="M421 65V0H46V65Q79 70 89 80T106 100Q120 119 120 160V316H58V376H120V517Q120 591 162 632T291 674Q354 674 414 654V586Q349 607 292 607T213 584T191 514V376H362V316H191V167Q191 91
144 65H421Z" />
<glyph unicode="&#xa4;" glyph-name="currency" horiz-adv-x="460" d="M388 376V296Q388 251 374 220L419 176L373 131L333 171Q296 146 232 146T128 171L88 131L42 176L87 220Q74 252 74 296V376Q74 421 87 451L42 495L88 541L128 501Q167 526 231 526T333 501L374
541L419 495L375 452Q388 420 388 376ZM143 375V297Q143 251 161 230T230 208T299 229T318 297V375Q318 421 300 442T231 464T162 443T143 375Z" />
<glyph unicode="&#xa5;" glyph-name="yen" horiz-adv-x="473" d="M445 413V357H333L293 258H445V202H278V0H211V202H41V258H194L155 357H41V413H134L40 654H110L245 296L378 654H448L354 413H445Z" />
<glyph unicode="&#xa6;" glyph-name="brokenbar" horiz-adv-x="208" d="M76 228H131V-151H76V228ZM76 804H131V426H76V804Z" />
<glyph unicode="&#xa7;" glyph-name="section" horiz-adv-x="365" d="M108 263V249Q108 217 120 200T167 168L253 126Q343 82 343 3V-9Q343 -149 161 -149Q93 -149 42 -135V-68Q90 -85 156 -85T247 -67T272 -12T260 40T208 75L122 116Q38 155 38 243V263H108ZM30
534Q30 604 70 638T201 673Q264 673 312 658V592Q264 609 203 609T122 591T101 532T112 476T159 444L245 403Q335 359 335 281V261H265V275Q265 303 252 318T200 352L114 394Q30 432 30 520V534Z" />
<glyph unicode="&#xa8;" glyph-name="dieresis" horiz-adv-x="350" d="M280 628T242 628T204 665T242 703T280 666ZM69 628T69 665T107 703T146 666T108 628Z" />
<glyph unicode="&#xa9;" glyph-name="copyright" horiz-adv-x="687" d="M562 172T571 216T580 318T576 413T557 486T518 544Q462 593 345 593Q193 593 146 516Q123 476 115 433T107 324T115 215T148 132Q195 56 345 56Q491 56 538 133Q562 172 571 216ZM226 379Q226
440 256 472T357 504Q397 504 431 496V440Q395 451 353 451T298 433T285 378V271Q285 238 294 223Q308 199 351 199T432 209V153Q387 145 357 145Q287 145 257 177T226 270V379ZM74 138T61 193T47 316T54 430T82 519T136 590T221 634T345 650T468 634T553 591T606
520Q640 448 640 324Q640 85 488 24Q429 0 344 0T199 23T107 92Z" />
<glyph unicode="&#xaa;" glyph-name="ordfeminine" horiz-adv-x="338" d="M86 432V399Q86 364 101 348T167 332T244 367V511L156 496Q86 482 86 432ZM169 745Q295 745 295 640V288H244V323Q215 288 148 288Q34 288 34 398V434Q34 480 63 505T147 541L244 559V644Q242
671 225 684T158 697T52 677V727Q106 745 169 745Z" />
<glyph unicode="&#xab;" glyph-name="guillemotleft" horiz-adv-x="465" d="M182 505H255L133 322L255 139H182L61 322L182 505ZM360 505H434L312 322L434 139H360L239 322L360 505Z" />
<glyph unicode="&#xac;" glyph-name="logicalnot" horiz-adv-x="455" d="M68 361H387V198H314V298H68V361Z" />
<glyph unicode="&#xad;" glyph-name="uni00AD" horiz-adv-x="228" d="M40 354H193V295H40V354Z" />
<glyph unicode="&#xae;" glyph-name="registered" horiz-adv-x="511" d="M71 629T114 680T269 732T425 681T469 520T426 359T270 307T114 358T71 519ZM268 348Q319 348 350 357T397 389T419 440T424 518Q424 617 395 654T269 692T145 655T116 519T144 385T268
348ZM195 650H267Q356 650 356 571Q356 516 321 498L367 391H319L281 488Q276 487 266 487H239V391H195V650ZM239 524H262Q291 524 303 533T315 570T305 604T269 612H239V524Z" />
<glyph unicode="&#xaf;" glyph-name="overscore" horiz-adv-x="350" d="M64 690H286V643H64V690Z" />
<glyph unicode="&#xb0;" glyph-name="degree" horiz-adv-x="370" d="M266 607T266 650T250 716T187 739T126 716T110 650T125 584T187 561T249 584ZM187 506Q52 506 52 650T187 795Q324 795 324 650Q324 584 292 545T187 506Z" />
<glyph unicode="&#xb1;" glyph-name="plusminus" horiz-adv-x="437" d="M252 354H398V295H252V157H187V295H41V354H187V492H252V354ZM41 42V101H398V42H41Z" />
<glyph unicode="&#xb2;" glyph-name="twosuperior" horiz-adv-x="292" d="M142 745Q263 745 263 641V618Q263 578 250 553T204 505L141 461Q99 433 90 419T80 372V337H265V289H29V372Q29 418 46 443T108 498L174 543Q198 558 205 575T212 621V640Q212 669 197
683T132 697T42 686V735Q79 745 142 745Z" />
<glyph unicode="&#xb3;" glyph-name="threesuperior" horiz-adv-x="305" d="M134 745Q255 745 258 645V603Q258 537 214 519Q258 501 258 437V388Q258 285 134 285Q71 285 32 296V345Q87 333 130 333T190 346T206 389V437Q206 465 194 479T143 495H98V543H143Q181
543 193 558T206 603V640Q206 669 190 683T133 697T42 688V737Q85 745 134 745Z" />
<glyph unicode="&#xb4;" glyph-name="acute" horiz-adv-x="350" d="M161 720H228L168 613H122L161 720Z" />
<glyph unicode="&#xb5;" glyph-name="uni00B5" horiz-adv-x="456" d="M219 63Q268 63 316 95V569H387V0H318V27Q278 0 225 0T139 11V-150H67V569H139V81Q146 74 170 69T219 63Z" />
<glyph unicode="&#xb6;" glyph-name="paragraph" horiz-adv-x="404" d="M226 672H332V1H261V371H226Q146 371 105 411T64 521T105 631T226 672Z" />
<glyph unicode="&#xb7;" glyph-name="middot" horiz-adv-x="215" d="M151 303T109 303T67 344T109 386T151 345Z" />
<glyph unicode="&#xb8;" glyph-name="cedilla" horiz-adv-x="350" d="M206 -42T225 -59T244 -109T219 -162T160 -182T105 -175V-135Q122 -142 148 -142Q199 -142 199 -106T146 -69H133L148 6H186L176 -40Q206 -42 225 -59Z" />
<glyph unicode="&#xb9;" glyph-name="onesuperior" horiz-adv-x="223" d="M170 740V289H119V688L22 613V674L110 740H170Z" />
<glyph unicode="&#xba;" glyph-name="ordmasculine" horiz-adv-x="336" d="M242 671T226 684T171 697T115 684T98 644V390Q98 361 114 347T171 333T227 347T243 390V644Q242 671 226 684ZM47 640Q47 745 171 745T295 640V390Q295 285 171 285T47 390V640Z" />
<glyph unicode="&#xbb;" glyph-name="guillemotright" horiz-adv-x="464" d="M28 505H101L222 322L101 139H28L150 322L28 505ZM206 505H280L401 322L280 139H206L328 322L206 505Z" />
<glyph unicode="&#xbc;" glyph-name="onequarter" horiz-adv-x="787" d="M489 672H542L208 0H155L489 672ZM630 145V411L496 145H630ZM680 451V145H729V98H680V0H630V98H446V146L601 451H680ZM188 672V220H137V620L40 544V605L128 672H188Z" />
<glyph unicode="&#xbd;" glyph-name="onehalf" horiz-adv-x="779" d="M489 672H542L209 0H156L489 672ZM188 672V221H137V620L40 545V606L128 672H188ZM594 456Q715 456 715 352V329Q715 289 702 264T656 216L593 172Q551 144 542 130T532 83V48H717V0H481V83Q481
129 498 154T560 209L626 254Q650 269 657 286T664 332V351Q664 380 649 394T584 408T494 397V446Q531 456 594 456Z" />
<glyph unicode="&#xbe;" glyph-name="threequarters" horiz-adv-x="827" d="M142 677Q263 677 266 577V535Q266 469 222 451Q266 433 266 369V321Q266 217 142 217Q86 217 40 228V277Q95 265 138 265T198 278T214 321V369Q214 397 202 411T151 427H106V475H151Q189
475 201 490T214 535V573Q214 602 198 615T140 629T49 620V669Q94 677 142 677ZM544 672H597L263 0H210L544 672ZM670 145V411L535 145H670ZM720 451V145H769V98H720V0H670V98H485V146L640 451H720Z" />
<glyph unicode="&#xbf;" glyph-name="questiondown" horiz-adv-x="379" d="M266 575T266 530T223 484T179 529T222 575ZM213 -113Q35 -113 35 28V127Q35 277 187 281L192 397H253L257 221H202Q105 221 105 126V32Q105 -8 128 -27T214 -46T330 -29V-98Q274 -113 213 -113Z" />
<glyph unicode="&#xc0;" glyph-name="Agrave" horiz-adv-x="438" d="M350 0L309 188H129L88 0H17L169 672H269L421 0H350ZM142 250H295L218 603L142 250ZM237 713H191L131 820H198L237 713Z" />
<glyph unicode="&#xc1;" glyph-name="Aacute" horiz-adv-x="438" d="M350 0L309 188H129L88 0H17L169 672H269L421 0H350ZM142 250H295L218 603L142 250ZM301 820L241 713H195L234 820H301Z" />
<glyph unicode="&#xc2;" glyph-name="Acircumflex" horiz-adv-x="438" d="M350 0L309 188H129L88 0H17L169 672H269L421 0H350ZM142 250H295L218 603L142 250ZM221 776L185 713H141L191 820H250L301 713H257L221 776Z" />
<glyph unicode="&#xc3;" glyph-name="Atilde" horiz-adv-x="438" d="M350 0L309 188H129L88 0H17L169 672H269L421 0H350ZM142 250H295L218 603L142 250ZM149 733V722H99V735Q99 769 116 789T163 810T228 790T274 769Q296 769 296 801V812H346V798Q346 763 329
744T284 724T221 744T172 764Q149 764 149 733Z" />
<glyph unicode="&#xc4;" glyph-name="Adieresis" horiz-adv-x="438" d="M350 0L309 188H129L88 0H17L169 672H269L421 0H350ZM142 250H295L218 603L142 250ZM189 728T151 728T112 765T150 803T189 766ZM323 728T285 728T247 765T285 803T323 766Z" />
<glyph unicode="&#xc5;" glyph-name="Aring" horiz-adv-x="438" d="M350 0L309 188H129L88 0H17L169 672H269L421 0H350ZM142 250H295L218 603L142 250ZM292 736T273 715T219 694T164 715T144 767T164 818T218 839T272 819T292 767ZM234 802T218 802T193 793T183
767Q183 731 218 731T253 767Q253 783 244 792Z" />
<glyph unicode="&#xc6;" glyph-name="AE" horiz-adv-x="659" d="M644 609H423V370H615V307H423V63H644V0H354V188H165L82 0H8L311 672H644V609ZM354 250V620L192 250H354Z" />
<glyph unicode="&#xc7;" glyph-name="Ccedilla" horiz-adv-x="394" d="M262 -42T281 -59T300 -109T275 -162T216 -182T161 -175V-135Q178 -142 204 -142Q255 -142 255 -106T202 -69H189L202 -3Q59 11 59 137V535Q59 677 239 677Q297 677 355 661V595Q296 612 237
612T154 592T130 531V140Q130 101 154 81T240 60T357 76V11Q307 -5 240 -5L232 -40Q262 -42 281 -59Z" />
<glyph unicode="&#xc8;" glyph-name="Egrave" horiz-adv-x="397" d="M133 820H200L239 713H193L133 820ZM69 672H360V609H140V370H332V307H140V63H360V0H69V672Z" />
<glyph unicode="&#xc9;" glyph-name="Eacute" horiz-adv-x="397" d="M69 672H360V609H140V370H332V307H140V63H360V0H69V672ZM231 820H298L238 713H192L231 820Z" />
<glyph unicode="&#xca;" glyph-name="Ecircumflex" horiz-adv-x="397" d="M360 609H140V370H332V307H140V63H360V0H69V672H360V609ZM209 776L173 713H129L179 820H238L289 713H245L209 776Z" />
<glyph unicode="&#xcb;" glyph-name="Edieresis" horiz-adv-x="397" d="M69 672H360V609H140V370H332V307H140V63H360V0H69V672ZM322 728T284 728T246 765T284 803T322 766ZM111 728T111 765T149 803T188 766T150 728Z" />
<glyph unicode="&#xcc;" glyph-name="Igrave" horiz-adv-x="397" d="M134 820H201L240 713H194L134 820ZM69 672H360V609H140V370H332V307H140V63H360V0H69V672Z" />
<glyph unicode="&#xcd;" glyph-name="Iacute" horiz-adv-x="397" d="M69 672H360V609H140V370H332V307H140V63H360V0H69V672ZM232 820H299L239 713H193L232 820Z" />
<glyph unicode="&#xce;" glyph-name="Icircumflex" horiz-adv-x="209" d="M138 820L189 713H145L109 776L73 713H29L79 820H138ZM69 0V672H140V0H69Z" />
<glyph unicode="&#xcf;" glyph-name="Idieresis" horiz-adv-x="209" d="M208 728T170 728T132 765T170 803T208 766ZM-3 728T-3 765T35 803T74 766T36 728ZM69 672H140V0H69V672Z" />
<glyph unicode="&#xd0;" glyph-name="Eth" horiz-adv-x="467" d="M71 672H247Q327 672 368 631T409 521V153Q409 82 369 41T249 0H71V299H-3V360H71V672ZM338 155V520Q338 610 243 610H142V360H250V299H142V63H243Q338 63 338 155Z" />
<glyph unicode="&#xd1;" glyph-name="Ntilde" horiz-adv-x="500" d="M332 812H382V798Q382 763 365 744T320 724T257 744T208 764Q185 764 185 733V722H135V735Q135 769 152 789T199 810T264 790T310 769Q332 769 332 801V812ZM367 114L360 335V672H431V0H349L211
348Q203 369 132 557Q132 557 138 337V0H69V672H151Q310 268 367 114Z" />
<glyph unicode="&#xd2;" glyph-name="Ograve" horiz-adv-x="457" d="M139 820H206L245 713H199L139 820ZM327 522Q327 617 229 617T130 522V150Q130 54 228 54T327 150V522ZM59 523Q59 594 102 638T228 682T355 638T398 523V148Q398 77 355 34T228 -10T102 33T59
148V523Z" />
<glyph unicode="&#xd3;" glyph-name="Oacute" horiz-adv-x="457" d="M327 522Q327 617 229 617T130 522V150Q130 54 228 54T327 150V522ZM59 523Q59 594 102 638T228 682T355 638T398 523V148Q398 77 355 34T228 -10T102 33T59 148V523ZM244 820H311L251 713H205L244
820Z" />
<glyph unicode="&#xd4;" glyph-name="Ocircumflex" horiz-adv-x="457" d="M59 148V523Q59 594 102 638T228 682T355 638T398 523V148Q398 77 355 34T228 -10T102 33T59 148ZM327 150V522Q327 617 229 617T130 522V150Q130 54 228 54T327 150ZM228 776L192 713H148L198
820H257L308 713H264L228 776Z" />
<glyph unicode="&#xd5;" glyph-name="Otilde" horiz-adv-x="457" d="M302 812H352V798Q352 763 335 744T290 724T227 744T178 764Q155 764 155 733V722H105V735Q105 769 122 789T169 810T234 790T280 769Q302 769 302 801V812ZM327 522Q327 617 229 617T130 522V150Q130
54 228 54T327 150V522ZM59 523Q59 594 102 638T228 682T355 638T398 523V148Q398 77 355 34T228 -10T102 33T59 148V523Z" />
<glyph unicode="&#xd6;" glyph-name="Odieresis" horiz-adv-x="457" d="M327 522Q327 617 229 617T130 522V150Q130 54 228 54T327 150V522ZM59 523Q59 594 102 638T228 682T355 638T398 523V148Q398 77 355 34T228 -10T102 33T59 148V523ZM333 728T295 728T257
765T295 803T333 766ZM122 728T122 765T160 803T199 766T161 728Z" />
<glyph unicode="&#xd7;" glyph-name="multiply" horiz-adv-x="375" d="M344 440L229 325L344 210L302 168L187 283L72 168L30 210L146 325L31 440L72 481L187 366L302 481L344 440Z" />
<glyph unicode="&#xd8;" glyph-name="Oslash" horiz-adv-x="457" d="M398 523V148Q398 77 355 34T237 -10T119 19L111 0H58L83 57Q59 96 59 148V523Q59 594 102 638T219 682T337 653L345 672H399L374 614Q398 576 398 523ZM130 522V169L308 586Q284 617 228 617Q130
617 130 522ZM327 150V504L148 86Q172 54 228 54Q327 54 327 150Z" />
<glyph unicode="&#xd9;" glyph-name="Ugrave" horiz-adv-x="466" d="M150 820H217L256 713H210L150 820ZM331 672H402V148Q402 77 360 34T233 -10T107 33T64 148V672H135V150Q135 54 233 54T331 150V672Z" />
<glyph unicode="&#xda;" glyph-name="Uacute" horiz-adv-x="466" d="M331 672H402V148Q402 77 360 34T233 -10T107 33T64 148V672H135V150Q135 54 233 54T331 150V672ZM249 820H316L256 713H210L249 820Z" />
<glyph unicode="&#xdb;" glyph-name="Ucircumflex" horiz-adv-x="466" d="M331 672H402V148Q402 77 360 34T233 -10T107 33T64 148V672H135V150Q135 54 233 54T331 150V672ZM232 776L196 713H152L202 820H261L312 713H268L232 776Z" />
<glyph unicode="&#xdc;" glyph-name="Udieresis" horiz-adv-x="466" d="M331 672H402V148Q402 77 360 34T233 -10T107 33T64 148V672H135V150Q135 54 233 54T331 150V672ZM338 728T300 728T262 765T300 803T338 766ZM127 728T127 765T165 803T204 766T166 728Z" />
<glyph unicode="&#xdd;" glyph-name="Yacute" horiz-adv-x="409" d="M218 820H285L225 713H179L218 820ZM240 0H169V227L4 672H77L145 489Q149 478 206 310Q243 425 333 672H405L240 227V0Z" />
<glyph unicode="&#xde;" glyph-name="Thorn" horiz-adv-x="429" d="M148 551H240Q319 551 360 510T402 400V272Q402 203 361 162T240 121H148V0H79V672H148V551ZM332 276V396Q332 488 237 488H148V185H237Q332 185 332 276Z" />
<glyph unicode="&#xdf;" glyph-name="germandbls" horiz-adv-x="537" d="M69 550Q69 632 116 674T248 716T380 676T427 565Q427 531 414 502T384 456Q340 411 340 382V371Q340 349 356 331T422 285T493 231T516 163V136Q516 70 472 33T338 -5Q278 -5 222 11V79Q272
61 334 61T421 81T446 139V157Q446 185 432 202T367 247T293 300T269 366V379Q269 406 282 430T312 470T342 510T356 563Q356 652 254 652Q194 652 166 627T138 547V0H69V550Z" />
<glyph unicode="&#xe0;" glyph-name="agrave" horiz-adv-x="425" d="M124 720H191L230 613H184L124 720ZM101 162V132Q101 92 120 73T192 54T292 93V280L178 248Q133 235 117 216T101 162ZM191 574Q361 574 361 429V0H293V41Q242 -4 171 -4Q32 -4 32 133V165Q32
269 153 303L293 342V429Q292 470 270 489T182 508T59 488V555Q116 574 191 574Z" />
<glyph unicode="&#xe1;" glyph-name="aacute" horiz-adv-x="425" d="M221 720H288L228 613H182L221 720ZM101 162V132Q101 92 120 73T192 54T292 93V280L178 248Q133 235 117 216T101 162ZM191 574Q361 574 361 429V0H293V41Q242 -4 171 -4Q32 -4 32 133V165Q32
269 153 303L293 342V429Q292 470 270 489T182 508T59 488V555Q116 574 191 574Z" />
<glyph unicode="&#xe2;" glyph-name="acircumflex" horiz-adv-x="425" d="M191 574Q361 574 361 429V0H293V41Q242 -4 171 -4Q32 -4 32 133V165Q32 269 153 303L293 342V429Q292 470 270 489T182 508T59 488V555Q116 574 191 574ZM101 162V132Q101 92 120 73T192
54T292 93V280L178 248Q133 235 117 216T101 162ZM215 676L179 613H135L185 720H244L295 613H251L215 676Z" />
<glyph unicode="&#xe3;" glyph-name="atilde" horiz-adv-x="425" d="M285 712H335V698Q335 663 318 644T273 624T210 644T161 664Q138 664 138 633V622H88V635Q88 669 105 689T152 710T217 690T263 669Q285 669 285 701V712ZM101 162V132Q101 92 120 73T192 54T292
93V280L178 248Q133 235 117 216T101 162ZM191 574Q361 574 361 429V0H293V41Q242 -4 171 -4Q32 -4 32 133V165Q32 269 153 303L293 342V429Q292 470 270 489T182 508T59 488V555Q116 574 191 574Z" />
<glyph unicode="&#xe4;" glyph-name="adieresis" horiz-adv-x="425" d="M315 628T277 628T239 665T277 703T315 666ZM104 628T104 665T142 703T181 666T143 628ZM101 162V132Q101 92 120 73T192 54T292 93V280L178 248Q133 235 117 216T101 162ZM191 574Q361 574
361 429V0H293V41Q242 -4 171 -4Q32 -4 32 133V165Q32 269 153 303L293 342V429Q292 470 270 489T182 508T59 488V555Q116 574 191 574Z" />
<glyph unicode="&#xe5;" glyph-name="aring" horiz-adv-x="425" d="M244 667Q244 683 235 692T209 702T184 693T174 667Q174 631 209 631T244 667ZM135 636T135 667T155 718T209 739T263 719T283 667T264 615T210 594T155 615ZM101 162V132Q101 92 120 73T192
54T292 93V280L178 248Q133 235 117 216T101 162ZM191 574Q361 574 361 429V0H293V41Q242 -4 171 -4Q32 -4 32 133V165Q32 269 153 303L293 342V429Q292 470 270 489T182 508T59 488V555Q116 574 191 574Z" />
<glyph unicode="&#xe6;" glyph-name="ae" horiz-adv-x="649" d="M550 423Q550 517 457 517Q362 517 362 423V308H550V423ZM101 162V132Q101 92 120 73T183 54Q249 54 293 89V280L178 248Q133 235 117 216T101 162ZM328 525Q374 579 456 579T579 537T619 423V249H362V148Q362
59 486 59Q539 59 602 77V11Q552 -5 483 -5Q375 -5 330 43Q275 -4 175 -4Q33 -4 33 133V165Q33 218 61 251T153 303L292 344V431Q292 470 270 489T182 508T59 488V555Q114 574 200 574T328 525Z" />
<glyph unicode="&#xe7;" glyph-name="ccedilla" horiz-adv-x="370" d="M227 -5H226L218 -40Q248 -42 267 -59T286 -109T261 -162T202 -182T147 -175V-135Q165 -142 190 -142Q241 -142 241 -106T188 -69H175L188 -3Q59 13 59 137V430Q59 574 227 574Q289 574 333
560V495Q285 508 229 508T152 489T130 428V140Q130 98 151 79T231 60T335 76V9Q281 -5 227 -5Z" />
<glyph unicode="&#xe8;" glyph-name="egrave" horiz-adv-x="436" d="M59 145V423Q59 494 99 536T222 579T343 537T383 423V249H129V148Q129 103 157 81T244 59T366 77V11Q316 -5 247 -5Q59 -5 59 145ZM129 308H315V423Q315 517 222 517T129 423V308ZM251 613H205L145
720H212L251 613Z" />
<glyph unicode="&#xe9;" glyph-name="eacute" horiz-adv-x="436" d="M59 145V423Q59 494 99 536T222 579T343 537T383 423V249H129V148Q129 103 157 81T244 59T366 77V11Q316 -5 247 -5Q59 -5 59 145ZM129 308H315V423Q315 517 222 517T129 423V308ZM309 720L249
613H203L242 720H309Z" />
<glyph unicode="&#xea;" glyph-name="ecircumflex" horiz-adv-x="436" d="M59 145V423Q59 494 99 536T222 579T343 537T383 423V249H129V148Q129 103 157 81T244 59T366 77V11Q316 -5 247 -5Q59 -5 59 145ZM129 308H315V423Q315 517 222 517T129 423V308ZM229
676L193 613H149L199 720H258L309 613H265L229 676Z" />
<glyph unicode="&#xeb;" glyph-name="edieresis" horiz-adv-x="436" d="M59 145V423Q59 494 99 536T222 579T343 537T383 423V249H129V148Q129 103 157 81T244 59T366 77V11Q316 -5 247 -5Q59 -5 59 145ZM129 308H315V423Q315 517 222 517T129 423V308ZM196 628T158
628T119 665T157 703T196 666ZM330 628T292 628T254 665T292 703T330 666Z" />
<glyph unicode="&#xec;" glyph-name="igrave" horiz-adv-x="209" d="M20 720H87L126 613H80L20 720ZM69 565H140V0H69V565Z" />
<glyph unicode="&#xed;" glyph-name="iacute" horiz-adv-x="209" d="M120 720H187L127 613H81L120 720ZM69 565H140V0H69V565Z" />
<glyph unicode="&#xee;" glyph-name="icircumflex" horiz-adv-x="209" d="M134 720L185 613H141L105 676L69 613H25L75 720H134ZM69 0V565H140V0H69Z" />
<glyph unicode="&#xef;" glyph-name="idieresis" horiz-adv-x="209" d="M210 628T172 628T134 665T172 703T210 666ZM-1 628T-1 665T37 703T76 666T38 628ZM69 565H140V0H69V565Z" />
<glyph unicode="&#xf0;" glyph-name="eth" horiz-adv-x="453" d="M388 307V147Q388 76 348 34T226 -9T104 33T64 146V292Q64 362 101 403T216 444Q270 444 304 414Q285 485 245 555L137 500V551L221 593Q191 636 155 672H245Q265 650 282 624L383 675V625L307
586Q388 448 388 307ZM318 147V352Q287 385 226 385Q133 385 133 291V148Q133 54 225 54T318 147Z" />
<glyph unicode="&#xf1;" glyph-name="ntilde" horiz-adv-x="451" d="M303 712H353V698Q353 663 336 644T291 624T228 644T179 664Q156 664 156 633V622H106V635Q106 669 123 689T170 710T235 690T281 669Q303 669 303 701V712ZM137 543Q204 571 259 571T351 537T387
439V0H316V432Q316 505 242 505Q195 505 140 479V0H69V569H137V543Z" />
<glyph unicode="&#xf2;" glyph-name="ograve" horiz-adv-x="442" d="M142 720H209L248 613H202L142 720ZM313 423Q313 516 221 516T129 423V146Q129 52 221 52T313 146V423ZM59 424Q59 495 99 537T221 579T343 537T383 424V145Q383 74 343 32T221 -10T99 32T59 145V424Z" />
<glyph unicode="&#xf3;" glyph-name="oacute" horiz-adv-x="442" d="M313 423Q313 516 221 516T129 423V146Q129 52 221 52T313 146V423ZM59 424Q59 495 99 537T221 579T343 537T383 424V145Q383 74 343 32T221 -10T99 32T59 145V424ZM241 720H308L248 613H202L241 720Z" />
<glyph unicode="&#xf4;" glyph-name="ocircumflex" horiz-adv-x="442" d="M59 145V424Q59 495 99 537T221 579T343 537T383 424V145Q383 74 343 32T221 -10T99 32T59 145ZM313 146V423Q313 516 221 516T129 423V146Q129 52 221 52T313 146ZM225 676L189 613H145L195
720H254L305 613H261L225 676Z" />
<glyph unicode="&#xf5;" glyph-name="otilde" horiz-adv-x="442" d="M299 712H349V698Q349 663 332 644T287 624T224 644T175 664Q152 664 152 633V622H102V635Q102 669 119 689T166 710T231 690T277 669Q299 669 299 701V712ZM313 423Q313 516 221 516T129 423V146Q129
52 221 52T313 146V423ZM59 424Q59 495 99 537T221 579T343 537T383 424V145Q383 74 343 32T221 -10T99 32T59 145V424Z" />
<glyph unicode="&#xf6;" glyph-name="odieresis" horiz-adv-x="442" d="M313 423Q313 516 221 516T129 423V146Q129 52 221 52T313 146V423ZM59 424Q59 495 99 537T221 579T343 537T383 424V145Q383 74 343 32T221 -10T99 32T59 145V424ZM333 628T295 628T257
665T295 703T333 666ZM122 628T122 665T160 703T199 666T161 628Z" />
<glyph unicode="&#xf7;" glyph-name="divide" horiz-adv-x="437" d="M263 452T221 452T179 493T221 535T263 494ZM263 109T221 109T179 150T221 192T263 151ZM40 353H397V294H40V353Z" />
<glyph unicode="&#xf8;" glyph-name="oslash" horiz-adv-x="442" d="M383 424V145Q383 74 343 32T230 -10T119 16L111 0H62L86 48Q59 85 59 145V424Q59 495 99 537T213 579T329 549L339 569H388L361 514Q383 477 383 424ZM129 423V138L297 484Q276 516 221 516Q129
516 129 423ZM313 146V415L149 78Q173 52 221 52Q313 52 313 146Z" />
<glyph unicode="&#xf9;" glyph-name="ugrave" horiz-adv-x="452" d="M138 720H205L244 613H198L138 720ZM216 61Q266 61 312 92V569H383V0H315V27Q257 -2 197 -2T100 34T64 140V569H135V146Q135 61 216 61Z" />
<glyph unicode="&#xfa;" glyph-name="uacute" horiz-adv-x="452" d="M216 61Q266 61 312 92V569H383V0H315V27Q257 -2 197 -2T100 34T64 140V569H135V146Q135 61 216 61ZM239 720H306L246 613H200L239 720Z" />
<glyph unicode="&#xfb;" glyph-name="ucircumflex" horiz-adv-x="452" d="M216 61Q266 61 312 92V569H383V0H315V27Q257 -2 197 -2T100 34T64 140V569H135V146Q135 61 216 61ZM226 676L190 613H146L196 720H255L306 613H262L226 676Z" />
<glyph unicode="&#xfc;" glyph-name="udieresis" horiz-adv-x="452" d="M216 61Q266 61 312 92V569H383V0H315V27Q257 -2 197 -2T100 34T64 140V569H135V146Q135 61 216 61ZM331 628T293 628T255 665T293 703T331 666ZM120 628T120 665T158 703T197 666T159 628Z" />
<glyph unicode="&#xfd;" glyph-name="yacute" horiz-adv-x="388" d="M208 720H275L215 613H169L208 720ZM299 569H370L214 -149H146L177 0H142L18 569H90L150 286L194 50Q214 168 238 286L299 569Z" />
<glyph unicode="&#xfe;" glyph-name="thorn" horiz-adv-x="455" d="M317 432Q317 506 243 506Q194 506 140 479V64H224Q317 64 317 154V432ZM69 720H139V544Q204 571 260 571T352 537T389 439V149Q389 79 349 40T241 0H140V-174H69V720Z" />
<glyph unicode="&#xff;" glyph-name="ydieresis" horiz-adv-x="388" d="M299 569H370L214 -149H146L177 0H142L18 569H90L150 286L194 50Q214 168 238 286L299 569ZM297 628T259 628T221 665T259 703T297 666ZM86 628T86 665T124 703T163 666T125 628Z" />
<glyph unicode="&#x2013;" glyph-name="endash" horiz-adv-x="404" d="M40 354H357V295H40V354Z" />
<glyph unicode="&#x2014;" glyph-name="emdash" horiz-adv-x="635" d="M40 354H583V295H40V354Z" />
<glyph unicode="&#x2018;" glyph-name="quoteleft" horiz-adv-x="159" d="M63 513Q29 513 29 546Q29 571 51 625T92 713H130L90 513H63Z" />
<glyph unicode="&#x2019;" glyph-name="quoteright" horiz-adv-x="159" d="M96 713Q130 713 130 680Q130 655 109 603T68 513H29L69 713H96Z" />
<glyph unicode="&#x201a;" glyph-name="quotesinglbase" horiz-adv-x="159" d="M96 85Q130 85 130 52Q130 5 68 -116H29L69 85H96Z" />
<glyph unicode="&#x201c;" glyph-name="quotedblleft" horiz-adv-x="271" d="M63 513Q29 513 29 546Q29 571 51 625T92 713H127L87 513H63ZM178 513Q144 513 144 546Q144 571 165 623T206 713H242L202 513H178Z" />
<glyph unicode="&#x201d;" glyph-name="quotedblright" horiz-adv-x="271" d="M93 713Q127 713 127 680Q127 655 106 603T65 513H29L69 713H93ZM208 713Q242 713 242 680Q242 655 221 603T180 513H144L184 713H208Z" />
<glyph unicode="&#x201e;" glyph-name="quotedblbase" horiz-adv-x="271" d="M93 85Q127 85 127 52Q127 5 65 -116H29L69 85H93ZM208 85Q242 85 242 52Q242 5 180 -116H144L184 85H208Z" />
<glyph unicode="&#x2022;" glyph-name="bullet" horiz-adv-x="269" d="M62 253T62 325T134 398T207 326T135 253Z" />
<glyph unicode="&#x2039;" glyph-name="guilsinglleft" horiz-adv-x="358" d="M193 505H267L145 322L267 139H193L72 322L193 505Z" />
<glyph unicode="&#x203a;" glyph-name="guilsinglright" horiz-adv-x="342" d="M72 505H146L267 322L146 139H72L194 322L72 505Z" />
</font>
</defs>
</svg>
